osu file format v14

[General]
AudioFilename: Razihel & Virtual Riot - One for All, All for One.mp3
AudioLeadIn: 1700
PreviewTime: 171652
Countdown: 0
SampleSet: Soft
StackLeniency: 0.7
Mode: 0
LetterboxInBreaks: 0
WidescreenStoryboard: 0

[Editor]
Bookmarks: 39756,92721,132445,158928,165549,170514,185411,205273,225135
DistanceSpacing: 0.9
BeatDivisor: 4
GridSize: 4
TimelineZoom: 0.8999994

[Metadata]
Title:One For All, All For One
TitleUnicode:One For All, All For One
Artist:Razihel & Virtual Riot
ArtistUnicode:Razihel & Virtual Riot
Creator:Fort
Version:Azin's Advanced
Source:
Tags:8bit Arcubin bbj0920 byfar chaoslitz CelsiusLK CLK deetz monstercat release Dubstep nintendo nintendostep 014 discovery
BeatmapID:628159
BeatmapSetID:275655

[Difficulty]
HPDrainRate:3
CircleSize:3
OverallDifficulty:4
ApproachRate:5
SliderMultiplier:1.3
SliderTickRate:1

[Events]
//Background and Video events
0,0,"1366x768-pixiv_fantasia_long_hair_pink_eyes-28824.jpg",0,0
//Break Periods
2,109473,118004
2,159127,164349
2,200507,204073
//Storyboard Layer 0 (Background)
//Storyboard Layer 1 (Fail)
//Storyboard Layer 2 (Pass)
//Storyboard Layer 3 (Foreground)
//Storyboard Sound Samples

[TimingPoints]
32,413.793103448276,4,2,1,100,1,0
12445,-100,4,2,4,40,0,0
13273,-100,4,2,1,40,0,0
19894,-100,4,2,1,60,0,0
26514,-100,4,2,1,100,0,0
32307,-100,4,2,4,100,0,0
33135,-100,4,2,1,100,0,0
34790,-100,4,2,1,50,0,0
36445,-100,4,2,1,40,0,0
36859,-100,4,2,1,50,0,0
37273,-100,4,2,1,60,0,0
37687,-100,4,2,1,70,0,0
38928,-100,4,2,4,80,0,0
39756,-100,4,2,1,100,0,1
40790,-100,4,2,4,100,0,1
41411,-100,4,2,1,100,0,1
44100,-100,4,2,4,100,0,1
44721,-100,4,2,1,100,0,1
47618,-100,4,2,4,100,0,1
48032,-100,4,2,1,100,0,1
50100,-100,4,2,4,100,0,1
50514,-100,4,2,1,100,0,1
54032,-100,4,2,4,100,0,1
54652,-100,4,2,1,100,0,1
57342,-100,4,2,4,100,0,1
57963,-100,4,2,1,100,0,1
60859,-100,4,2,4,100,0,1
61273,-100,4,2,1,100,0,1
63963,-100,4,2,4,100,0,1
64376,-100,4,2,1,100,0,1
65411,-100,4,2,4,100,0,1
66238,-100,4,2,1,100,0,0
72445,-100,4,2,4,100,0,0
72859,-100,4,2,1,100,0,0
78652,-100,4,2,4,100,0,0
79480,-100,4,2,1,100,0,1
80721,-100,4,2,4,100,0,1
81135,-100,4,2,1,100,0,1
82790,-100,4,2,1,100,0,1
84032,-100,4,2,4,100,0,1
84445,-100,4,2,1,100,0,1
85687,-100,4,2,4,100,0,1
86100,-100,4,2,1,100,0,1
87963,-100,4,2,4,100,0,1
88169,-100,4,2,1,100,0,1
89411,-100,4,2,1,100,0,1
92514,-100,4,2,4,100,0,1
92721,-100,4,2,1,100,0,1
93549,-100,4,2,4,100,0,1
94376,-100,4,2,1,100,0,1
94790,-100,4,2,4,100,0,1
94997,-100,4,2,1,100,0,1
95411,-100,4,2,1,100,0,1
96032,-100,4,2,1,100,0,1
96445,-100,4,2,1,100,0,1
96859,-100,4,2,4,100,0,1
97273,-100,4,2,1,100,0,1
100583,-100,4,2,4,100,0,1
100997,-100,4,2,1,100,0,1
101411,-100,4,2,1,100,0,1
101825,-100,4,2,1,100,0,1
104307,-100,4,2,1,100,0,1
105963,-100,4,2,1,5,0,0
119204,-100,4,2,2,100,0,0
132445,-100,4,2,1,70,0,0
171756,-100,4,2,4,70,0,0
172169,-100,4,2,1,100,0,1
185411,-100,4,2,1,100,0,1
185825,-100,4,2,4,100,0,1
186238,-100,4,2,1,100,0,1
186652,-100,4,2,4,100,0,1
187066,-100,4,2,1,100,0,1
192445,-100,4,2,4,100,0,1
192859,-100,4,2,1,100,0,1
193273,-100,4,2,4,100,0,1
193687,-100,4,2,1,100,0,1
194100,-100,4,2,4,100,0,1
194514,-100,4,2,1,100,0,1
197411,-100,4,2,1,60,0,1
197825,-100,4,2,1,70,0,1
198238,-100,4,2,1,100,0,1
198652,-100,4,2,1,50,0,0
205273,-100,4,2,1,100,0,0
211066,-100,4,2,4,100,0,0
211894,-100,4,2,1,100,0,1
227411,-100,4,2,4,100,0,1
227825,-100,4,2,1,100,0,1
228859,-100,4,2,4,100,0,1
229273,-100,4,2,1,100,0,1
232997,-100,4,2,4,100,0,1
233411,-100,4,2,1,100,0,1
236100,-100,4,2,4,100,0,1
236721,-100,4,2,1,100,0,1
238376,-100,4,2,1,100,0,0
238790,-100,4,2,1,90,0,0
239204,-100,4,2,1,80,0,0
239618,-100,4,2,1,70,0,0
240032,-100,4,2,1,60,0,0
240445,-100,4,2,1,50,0,0
240859,-100,4,2,1,40,0,0
241273,-100,4,2,1,30,0,0
241687,-100,4,2,1,20,0,0

[Colours]
Combo1 : 183,0,0
Combo2 : 173,173,173
Combo3 : 105,105,105
Combo4 : 98,98,255
Combo5 : 0,0,230
Combo6 : 255,32,143
Combo7 : 155,0,78
Combo8 : 255,60,60

[HitObjects]
160,92,12445,6,0,B|110:87|64:112|40:151,1,130,2|2,0:0|0:0,0:0:0:0:
80,220,13066,1,2,0:0:0:0:
44,296,13273,22,0,L|188:320,1,130,2|0,0:0|0:0,0:0:0:0:
324,240,14100,2,0,L|180:216,1,130,8|0,0:0|0:0,0:0:0:0:
130,166,14721,1,0,0:0:0:0:
48,144,14928,2,0,B|59:97|107:71|152:84,1,130,2|0,0:0|0:0,0:0:0:0:
304,152,15756,2,0,B|380:150|454:140,1,130,8|0,0:0|0:0,0:0:0:0:
460,308,16583,38,0,B|418:284|369:288|333:312,1,130,2|0,0:0|0:0,0:0:0:0:
168,336,17411,2,0,L|148:200,1,130,8|0,0:0|0:0,0:0:0:0:
244,68,18238,2,0,L|264:204,1,130,2|0,0:0|0:0,0:0:0:0:
288,364,19066,2,0,L|368:356,2,65,8|2|2,0:0|0:0|0:0,0:0:0:0:
228,304,19687,1,0,0:0:0:0:
152,340,19894,22,0,B|108:309|89:257|96:209,1,130,2|0,0:0|0:0,0:0:0:0:
116,148,20514,1,2,0:0:0:0:
192,180,20721,2,0,B|238:191|283:184|321:164,1,130,8|0,0:0|0:0,0:0:0:0:
444,52,21549,1,2,0:0:0:0:
464,136,21756,2,0,B|476:167|475:200|464:228,1,65,0|0,0:0|0:0,0:0:0:0:
408,256,22169,1,2,0:0:0:0:
332,216,22376,2,0,B|297:181|238:185|208:224,1,130,8|0,0:0|0:0,0:0:0:0:
136,248,22997,1,2,0:0:0:0:
56,220,23204,6,0,L|48:72,1,130,2|0,0:0|0:0,0:0:0:0:
220,84,24032,2,0,B|256:80|280:108|280:108|328:104|352:136,1,130,8|0,0:0|0:0,0:0:0:0:
364,288,24859,2,0,B|346:320|306:333|271:320|253:293,1,130,2|0,0:0|0:0,0:0:0:0:
184,248,25480,1,2,0:0:0:0:
104,272,25687,2,0,L|84:132,1,130,8|8,0:0|0:0,0:0:0:0:
224,48,26514,22,0,B|272:31|322:40|360:68,1,130,2|2,0:0|0:0,0:0:0:0:
380,140,27135,2,0,L|384:204,1,65,8|2,0:0|0:0,0:0:0:0:
240,292,27756,2,0,B|229:265|230:236|240:212,1,65,2|8,0:0|0:0,0:0:0:0:
316,208,28169,2,0,B|356:246|419:240|452:197,2,130,2|2|2,0:0|0:0|0:0,0:0:0:0:
172,296,29411,2,0,L|178:231,1,65,2|8,0:0|0:0,0:0:0:0:
96,256,29825,70,0,L|112:112,1,130,2|2,0:0|0:0,0:0:0:0:
252,24,30652,2,0,L|232:168,1,130,2|2,0:0|0:0,0:0:0:0:
290,216,31273,1,8,0:0:0:0:
350,274,31480,2,0,B|375:236|370:202|370:202|426:142,2,130,2|2|2,0:0|0:0|0:0,0:0:0:0:
284,327,32514,2,0,L|196:315,1,65,8|2,0:0|0:0,0:0:0:0:
144,280,32928,1,2,0:0:0:0:
68,317,33135,6,0,B|47:270|70:217|115:198,1,130,2|2,0:0|0:0,0:0:0:0:
264,144,33963,2,0,L|420:152,1,130,2|2,0:0|0:0,0:0:0:0:
392,236,34583,1,8,0:0:0:0:
360,316,34790,2,0,B|319:352|258:348|221:313,1,130,2|2,0:0|0:0,0:0:0:0:
204,248,35411,2,0,B|212:210|204:172,1,65,0|2,0:0|0:0,0:0:0:0:
136,132,35825,2,0,B|128:94|136:56,2,65,0|2|0,0:0|0:0|0:0,0:0:0:0:
212,168,36445,22,0,B|252:133|309:130|351:155,1,130,2|2,0:0|0:0,0:0:0:0:
456,264,37273,1,2,0:0:0:0:
288,248,37687,1,2,0:0:0:0:
132,316,38100,1,2,0:0:0:0:
80,172,38928,2,0,B|121:166|160:168,1,65,2|0,0:0|0:0,0:0:0:0:
228,168,39342,1,2,0:0:0:0:
296,220,39549,1,2,0:0:0:0:
308,136,39756,38,0,B|326:91|310:42|273:17,1,130,6|2,0:0|0:0,0:0:0:0:
108,48,40583,2,0,B|82:51|57:41|40:24,2,65,8|2|2,0:0|0:0|0:0,0:0:0:0:
228,168,41411,2,0,B|239:196|238:226|228:252,1,65,2|0,0:0|0:0,0:0:0:0:
180,296,41825,1,2,0:0:0:0:
256,332,42032,1,2,0:0:0:0:
340,320,42238,2,0,B|380:304|416:316|416:316|460:268,1,130,8|2,0:0|0:0,0:0:0:0:
432,108,43066,22,0,L|348:104,1,65,6|0,0:0|0:0,0:0:0:0:
284,116,43480,2,0,B|294:157|272:199|234:217|197:212,1,130,2|8,0:0|0:0,0:0:0:0:
148,164,44100,1,2,0:0:0:0:
84,220,44307,2,0,L|92:304,1,65,2|2,0:0|0:0,0:0:0:0:
168,324,44721,2,0,B|245:316|321:320,2,130,2|2|8,0:0|0:0|0:0,0:0:0:0:
8,264,45963,1,2,0:0:0:0:
100,124,46376,6,0,B|148:103|200:110|240:136,1,130,6|2,0:0|0:0,0:0:0:0:
376,208,47204,2,0,B|389:164|384:120,2,65,8|2|2,0:0|0:0|0:0,0:0:0:0:
304,256,47825,1,2,0:0:0:0:
240,200,48032,2,0,B|259:166|250:124|219:99|185:96,1,130,2|2,0:0|0:0,0:0:0:0:
120,140,48652,2,0,L|112:212,1,65,2|8,0:0|0:0,0:0:0:0:
16,344,49273,1,2,0:0:0:0:
184,324,49687,22,0,B|234:311|285:314|330:329,1,130,6|2,0:0|0:0,0:0:0:0:
412,188,50514,2,0,B|384:201|353:198|328:184,2,65,8|2|2,0:0|0:0|0:0,0:0:0:0:
456,116,51135,1,2,0:0:0:0:
392,64,51342,2,0,L|236:80,1,130,2|2,0:0|0:0,0:0:0:0:
100,120,52169,2,0,L|84:276,1,130,8|0,0:0|0:0,0:0:0:0:
236,332,52997,38,0,B|265:322|294:321|321:328,1,65,6|0,0:0|0:0,0:0:0:0:
384,340,53411,2,0,L|400:196,1,130,2|8,0:0|0:0,0:0:0:0:
460,156,54032,1,2,0:0:0:0:
388,112,54238,1,2,0:0:0:0:
248,208,54652,2,2,B|214:231|169:226|139:199|128:165,1,130,,,0:0:0:0:
80,116,55273,1,2,0:0:0:0:
48,196,55480,2,0,B|64:270|48:344,1,130,8|2,0:0|0:0,0:0:0:0:
220,328,56307,6,0,L|428:312,1,195,6|2,0:0|0:0,0:0:0:0:
452,236,57135,2,0,B|473:192|472:144,1,65,8|2,0:0|0:0,0:0:0:0:
400,128,57549,2,0,B|379:172|380:220,1,65,2|2,0:0|0:0,0:0:0:0:
304,224,57963,2,0,B|262:245|215:245|176:228,1,130,2|2,0:0|0:0,0:0:0:0:
12,192,58790,2,0,L|12:128,1,65,8|0,0:0|0:0,0:0:0:0:
96,116,59204,2,0,L|96:260,1,130,2|6,0:0|0:0,0:0:0:0:
96,246,60032,22,0,L|189:241,1,65,2|0,0:0|0:0,0:0:0:0:
233,285,60445,2,0,B|235:333|228:378,2,65,8|2|2,0:0|0:0|0:0,0:0:0:0:
253,201,61066,1,2,0:0:0:0:
325,241,61273,2,0,B|356:264|400:257|425:225|425:191,1,130,2|2,0:0|0:0,0:0:0:0:
393,121,61894,1,2,0:0:0:0:
313,93,62100,2,0,L|169:105,1,130,8|2,0:0|0:0,0:0:0:0:
20,156,62928,22,0,B|20:200|40:228|40:228|44:248|32:288,1,130,6|2,0:0|0:0,0:0:0:0:
200,308,63756,2,0,L|280:300,2,65,8|2|2,0:0|0:0|0:0,0:0:0:0:
144,244,64376,1,2,0:0:0:0:
112,168,64583,2,0,B|92:123|97:75|120:36,1,130,2|2,0:0|0:0,0:0:0:0:
276,104,65411,2,0,L|416:104,1,130,8|2,0:0|0:0,0:0:0:0:
429,233,66238,38,0,B|468:239|505:225,2,65,2|0|0,0:0|0:0|0:0,0:0:0:0:
357,189,66859,1,2,0:0:0:0:
309,257,67066,2,0,B|272:320|192:288|192:288|112:296|112:376,2,260,8|2|8,0:0|0:0|0:0,0:0:0:0:
277,177,68928,1,2,0:0:0:0:
229,109,69135,2,0,B|220:81|225:51|241:29,1,65,2|0,0:0|0:0,0:0:0:0:
308,84,69549,6,0,B|364:108|372:164|372:164|452:128|508:200,1,260,2|8,0:0|0:0,0:0:0:0:
384,312,70790,1,0,0:0:0:0:
308,276,70997,1,2,0:0:0:0:
244,332,71204,2,0,B|217:346|186:341|164:324,1,65,2|0,0:0|0:0,0:0:0:0:
156,252,71618,2,0,B|135:242|113:242|93:249,1,65,2|0,0:0|0:0,0:0:0:0:
12,280,72032,2,0,L|8:136,1,130,8|2,0:0|0:0,0:0:0:0:
56,80,72652,1,2,0:0:0:0:
128,124,72859,22,0,B|173:146|225:136|259:105,1,130,6|2,0:0|0:0,0:0:0:0:
404,36,73687,1,8,0:0:0:0:
424,204,74100,2,0,L|416:280,1,65,2|2,0:0|0:0,0:0:0:0:
372,340,74514,2,0,B|324:344|284:320|284:320|228:340,1,130,2|2,0:0|0:0,0:0:0:0:
80,328,75342,1,8,0:0:0:0:
88,160,75756,1,2,0:0:0:0:
144,96,75963,1,0,0:0:0:0:
228,112,76169,22,0,L|252:24,2,65,2|2|2,0:0|0:0|0:0,0:0:0:0:
356,224,76997,1,8,0:0:0:0:
228,332,77411,2,0,B|199:292|147:280|105:300,1,130,2|2,0:0|0:0,0:0:0:0:
72,84,78652,2,0,B|64:116|68:149|80:177,1,65,2|0,0:0|0:0,0:0:0:0:
136,204,79066,1,2,0:0:0:0:
208,248,79273,1,2,0:0:0:0:
212,164,79480,38,0,L|368:148,1,130,6|2,0:0|0:0,0:0:0:0:
444,288,80307,1,8,0:0:0:0:
276,304,80721,2,0,L|211:310,1,65,2|2,0:0|0:0,0:0:0:0:
144,364,81135,2,0,B|112:312|140:264|140:264|92:276|48:240,1,195,2|2,0:0|0:0,0:0:0:0:
44,164,81963,2,0,B|29:126|51:83|94:72|126:87,1,130,8|2,0:0|0:0,0:0:0:0:
280,96,82790,6,0,B|340:90|393:130|407:189|389:238,1,195,6|2,0:0|0:0,0:0:0:0:
385,306,83618,1,8,0:0:0:0:
224,336,84032,2,0,B|194:328|165:332|140:344,1,65,2|2,0:0|0:0,0:0:0:0:
76,336,84445,2,0,L|64:192,1,130,2|2,0:0|0:0,0:0:0:0:
124,48,85273,1,8,0:0:0:0:
272,132,85687,2,0,L|352:128,1,65,2|2,0:0|0:0,0:0:0:0:
356,212,86100,22,0,B|290:209|226:218,2,130,6|2|8,0:0|0:0|0:0,0:0:0:0:
452,72,87342,1,2,0:0:0:0:
484,236,87756,2,0,B|495:262|492:290|480:312,1,65,2|2,0:0|0:0,0:0:0:0:
408,328,88169,2,0,L|260:340,1,130,2|8,0:0|0:0,0:0:0:0:
108,336,88997,1,2,0:0:0:0:
32,304,89204,1,2,0:0:0:0:
68,228,89411,22,0,B|100:164|72:100|72:100|144:136|208:96,1,260,6|8,0:0|0:0,0:0:0:0:
256,44,90445,1,0,0:0:0:0:
332,76,90652,2,0,L|400:68,1,65,2|2,0:0|0:0,0:0:0:0:
460,124,91066,2,0,B|492:168|494:223|472:267,2,130,2|2|8,0:0|0:0|0:0,0:0:0:0:
356,256,92307,1,2,0:0:0:0:
292,308,92514,1,2,0:0:0:0:
224,260,92721,38,0,B|192:252|152:268|152:268|104:208|140:156,1,195,6|2,0:0|0:0,0:0:0:0:
196,92,93549,2,0,B|198:66|186:43|168:28,2,65,2|2|2,0:0|0:0|0:0,0:0:0:0:
348,168,94376,2,0,B|394:176|440:168,1,65,2|0,0:0|0:0,0:0:0:0:
468,108,94790,2,0,B|476:74|468:40,2,65,2|2|8,0:0|0:0|0:0,0:0:0:0:
500,184,95411,2,0,B|512:229|496:275|465:304,1,130,2|2,0:0|0:0,0:0:0:0:
388,264,96032,5,6,0:0:0:0:
220,280,96445,2,0,L|210:344,1,65,2|0,0:0|0:0,0:0:0:0:
124,348,96859,1,10,0:0:0:0:
124,348,97066,1,2,0:0:0:0:
56,296,97273,2,0,L|48:144,2,130,2|2|2,0:0|0:0|0:0,0:0:0:0:
180,180,98514,1,8,0:0:0:0:
256,332,98928,1,2,0:0:0:0:
424,356,99342,22,0,B|443:306|426:253|389:221,1,130,6|2,0:0|0:0,0:0:0:0:
332,80,100169,2,0,B|359:73|385:75|409:84,1,65,8|2,0:0|0:0,0:0:0:0:
364,160,100583,2,0,B|337:167|311:165|287:156,1,65,2|2,0:0|0:0,0:0:0:0:
232,108,100997,2,0,B|187:88|137:99|105:131,1,130,2|2,0:0|0:0,0:0:0:0:
64,200,101618,1,2,0:0:0:0:
24,128,101825,2,0,L|12:40,2,65,8|0|2,0:0|0:0|0:0,0:0:0:0:
24,296,102652,22,0,L|180:312,2,130,6|2|8,0:0|0:0|0:0,0:0:0:0:
4,212,103687,1,2,0:0:0:0:
88,220,103894,2,0,L|244:236,1,130,2|2,0:0|0:0,0:0:0:0:
356,136,104721,1,8,0:0:0:0:
356,136,104928,1,2,0:0:0:0:
412,296,105342,1,8,0:0:0:0:
412,296,105549,1,8,0:0:0:0:
412,296,105756,1,8,0:0:0:0:
256,192,105963,12,0,109273,0:0:0:0:
128,80,119204,5,0,0:0:0:0:
420,248,120032,1,8,0:0:0:0:
84,280,120859,1,0,0:0:0:0:
316,36,121687,1,8,0:0:0:0:
232,364,122514,5,0,0:0:0:0:
24,96,123342,2,0,B|96:31|202:35|271:95,1,260,8|0,0:0|0:0,0:0:0:0:
512,320,124997,2,0,B|440:385|334:381|265:321,1,260,8|0,0:0|0:0,0:0:0:0:
136,20,126652,37,8,0:0:0:0:
112,356,127480,1,0,0:0:0:0:
364,128,128307,1,8,0:0:0:0:
224,36,128721,1,0,0:0:0:0:
68,96,129135,6,0,B|124:146|139:225|110:293|57:331,1,260,0|8,0:0|0:0,0:0:0:0:
404,348,130790,2,0,B|348:298|333:219|362:151|415:113,1,260,0|8,0:0|0:0,0:0:0:0:
260,40,132032,1,8,0:0:0:0:
116,124,132445,22,0,L|124:256,1,130,2|8,0:0|0:0,0:0:0:0:
268,168,133273,2,0,L|260:36,1,130,2|8,0:0|0:0,0:0:0:0:
424,84,134100,1,2,0:0:0:0:
416,252,134514,1,8,0:0:0:0:
268,168,134928,2,0,B|237:159|205:164|180:180,1,65,2|0,0:0|0:0,0:0:0:0:
132,216,135342,2,0,L|148:300,1,65,8|0,0:0|0:0,0:0:0:0:
208,336,135756,38,0,B|288:348|288:348|332:336|348:300,2,130,2|8|2,0:0|0:0|0:0,0:0:0:0:
40,364,136997,1,8,0:0:0:0:
16,196,137411,2,0,B|9:140|49:91|103:84,1,130,2|8,0:0|0:0,0:0:0:0:
156,120,138032,1,0,0:0:0:0:
228,80,138238,2,0,L|280:40,2,65,2|0|8,0:0|0:0|0:0,0:0:0:0:
272,152,138859,1,8,0:0:0:0:
316,224,139066,6,0,B|357:198|369:144|344:105,2,130,2|8|2,0:0|0:0|0:0,0:0:0:0:
148,204,140307,1,8,0:0:0:0:
72,52,140721,1,2,0:0:0:0:
16,212,141135,2,0,B|17:266|52:311|99:328,1,130,8|2,0:0|0:0,0:0:0:0:
160,288,141756,1,0,0:0:0:0:
232,336,141963,2,0,L|304:344,1,65,8|0,0:0|0:0,0:0:0:0:
364,292,142376,22,0,B|355:242|383:195|427:176,1,130,2|8,0:0|0:0,0:0:0:0:
472,120,142997,1,2,0:0:0:0:
388,100,143204,2,0,B|345:127|292:120|257:89,1,130,2|8,0:0|0:0,0:0:0:0:
108,36,144032,2,0,L|115:165,1,130,2|8,0:0|0:0,0:0:0:0:
160,236,144652,2,0,B|127:259|85:256|54:232|40:201,1,130,2|2,0:0|0:0,0:0:0:0:
16,132,145273,2,0,B|26:103|22:72|8:48,2,65,8|8|2,0:0|0:0|0:0,0:0:0:0:
360,328,147342,22,0,B|368:304|352:268|352:268|388:276|432:264,1,130,2|8,0:0|0:0,0:0:0:0:
468,200,147963,2,0,L|476:60,1,130,2|2,0:0|0:0,0:0:0:0:
392,88,148583,1,8,0:0:0:0:
228,124,148997,38,0,L|84:104,1,130,2|8,0:0|0:0,0:0:0:0:
60,180,149618,2,0,L|188:197,1,130,2|2,0:0|0:0,0:0:0:0:
240,264,150238,1,8,0:0:0:0:
408,236,150652,2,0,B|421:286|418:337|403:382,1,130,2|8,0:0|0:0,0:0:0:0:
328,336,151273,1,2,0:0:0:0:
244,348,151480,2,0,B|214:350|187:335|172:312,1,65,2|0,0:0|0:0,0:0:0:0:
112,280,151894,2,0,B|92:265|67:260|44:264,1,65,8|8,0:0|0:0,0:0:0:0:
24,184,152307,6,0,L|4:40,2,130,2|8|2,0:0|0:0|0:0,0:0:0:0:
180,124,153549,1,8,0:0:0:0:
284,256,153963,2,0,B|329:224|391:239|416:288,1,130,2|8,0:0|0:0,0:0:0:0:
484,292,154583,2,0,L|480:140,1,130,2|2,0:0|0:0,0:0:0:0:
424,100,155204,2,0,B|397:113|367:110|344:96,1,65,8|0,0:0|0:0,0:0:0:0:
292,56,155618,22,0,L|148:60,1,130,2|8,0:0|0:0,0:0:0:0:
92,104,156238,2,0,B|84:128|96:168|96:168|108:208|92:236,1,130,2|2,0:0|0:0,0:0:0:0:
56,308,156859,1,8,0:0:0:0:
56,308,157273,2,0,L|16:360,2,65,2|2|8,0:0|0:0|0:0,0:0:0:0:
136,276,157894,1,2,0:0:0:0:
212,312,158100,2,0,B|251:318|288:304,1,65,8|0,0:0|0:0,0:0:0:0:
352,264,158514,2,0,L|360:120,1,130,8|6,0:0|0:0,0:0:0:0:
88,72,165549,22,0,B|98:143|88:212,1,130,2|2,0:0|0:0,0:0:0:0:
168,352,166376,2,0,B|239:340|308:352,1,130,2|2,0:0|0:0,0:0:0:0:
448,276,167204,2,0,B|436:205|448:136,1,130,2|2,0:0|0:0,0:0:0:0:
328,28,168032,2,0,B|257:38|188:28,1,130,2|2,0:0|0:0,0:0:0:0:
36,80,168859,6,0,L|44:148,1,65,2|2,0:0|0:0,0:0:0:0:
124,172,169273,2,0,L|132:240,1,65,2|2,0:0|0:0,0:0:0:0:
204,276,169687,2,0,L|212:344,1,65,2|2,0:0|0:0,0:0:0:0:
296,356,170100,2,0,B|339:367|382:338|389:291|369:258,1,130,2|2,0:0|0:0,0:0:0:0:
377,282,171756,37,2,0:0:0:0:
208,280,172169,6,0,B|120:280|120:280|76:256,1,130,6|8,0:0|0:0,0:0:0:0:
8,108,172997,1,2,0:0:0:0:
168,48,173411,2,0,B|256:48|256:48|300:72,2,130,8|2|8,0:0|0:0|0:0,0:0:0:0:
88,196,174652,2,0,B|96:260|96:260|60:328,1,130,2|8,0:0|0:0,0:0:0:0:
228,360,175480,22,0,L|376:352,1,130,6|8,0:0|0:0,0:0:0:0:
472,228,176307,2,0,B|480:168|480:168|444:88,1,130,2|8,0:0|0:0,0:0:0:0:
300,180,177135,2,0,B|252:204|252:204|160:200,1,130,2|8,0:0|0:0,0:0:0:0:
56,80,177963,2,0,B|104:56|104:56|196:60,1,130,2|8,0:0|0:0,0:0:0:0:
300,176,178790,22,0,B|312:248|312:248|376:264,1,130,6|8,0:0|0:0,0:0:0:0:
444,112,179618,2,0,L|492:96,2,43.3333333333333,2|0|2,0:0|0:0|0:0,0:0:0:0:
396,80,180032,2,0,B|352:60|352:60|264:68,1,130,8|2,0:0|0:0,0:0:0:0:
112,132,180859,1,8,0:0:0:0:
104,300,181273,2,0,B|152:300|152:300|192:280,2,86.6666666666667,2|2|2,0:0|0:0|0:0,0:0:0:0:
24,220,182100,38,0,L|12:88,1,130,6|8,0:0|0:0,0:0:0:0:
172,40,182928,2,0,B|208:32|208:32|300:56,1,130,2|8,0:0|0:0,0:0:0:0:
460,104,183756,1,2,0:0:0:0:
296,148,184169,2,0,L|248:136,2,43.3333333333333,8|0|2,0:0|0:0|0:0,0:0:0:0:
344,180,184583,2,0,B|344:264|344:264|288:300,2,130,2|8|6,0:0|0:0|0:0,0:0:0:0:
220,68,185825,6,0,B|152:64|152:64|88:88,1,130,2|2,0:0|0:0,0:0:0:0:
52,248,186652,2,0,B|96:260|96:260|132:256|132:256|184:272,1,130,2|2,0:0|0:0,0:0:0:0:
344,296,187480,2,0,L|376:332,2,43.3333333333333,8|0|0,0:0|0:0|0:0,0:0:0:0:
288,300,187894,2,0,L|288:356,2,43.3333333333333,2|0|2,0:0|0:0|0:0,0:0:0:0:
292,244,188307,2,0,B|308:196|308:196|288:104,1,130,8|6,0:0|0:0,0:0:0:0:
128,76,189135,21,8,0:0:0:0:
48,224,189549,2,0,B|96:240|96:240|176:228,1,130,2|8,0:0|0:0,0:0:0:0:
336,176,190376,2,0,B|384:160|384:160|464:172,1,130,2|8,0:0|0:0,0:0:0:0:
368,312,191204,1,2,0:0:0:0:
236,208,191618,2,0,L|240:156,2,43.3333333333333,8|8|8,0:0|0:0|0:0,0:0:0:0:
196,248,192032,22,0,B|108:240|108:240|84:196,1,130,6|10,0:0|0:0,0:0:0:0:
40,40,192859,2,0,L|184:48,1,130,2|10,0:0|0:0,0:0:0:0:
328,112,193687,1,2,0:0:0:0:
216,236,194100,2,0,L|204:288,2,43.3333333333333,8|2|2,0:0|0:0|0:0,0:0:0:0:
168,204,194514,2,0,B|80:192|80:192|44:152,1,130,2|8,0:0|0:0,0:0:0:0:
188,60,195342,38,0,B|240:68|240:68|272:88|272:88|324:96,1,130,6|8,0:0|0:0,0:0:0:0:
428,216,196169,2,0,B|452:180|452:180|456:128,2,86.6666666666667,2|2|2,0:0|0:0|0:0,0:0:0:0:
316,224,196997,1,2,0:0:0:0:
192,336,197411,1,8,0:0:0:0:
40,260,197825,1,8,0:0:0:0:
112,108,198238,1,8,0:0:0:0:
256,192,198652,12,0,200307,0:0:0:0:
108,176,205273,6,0,B|94:125|117:74|159:49,2,130,2|2|8,0:0|0:0|0:0,0:0:0:0:
268,228,206514,1,2,0:0:0:0:
144,344,206928,2,0,B|97:358|50:345|16:316,2,130,2|2|8,0:0|0:0|0:0,0:0:0:0:
268,228,208169,1,2,0:0:0:0:
396,116,208583,22,0,B|373:103|347:101|324:108,1,65,2|2,0:0|0:0,0:0:0:0:
252,136,208997,2,0,B|229:149|203:151|180:144,1,65,2|2,0:0|0:0,0:0:0:0:
112,112,209411,1,8,0:0:0:0:
84,192,209618,2,0,L|72:272,2,65,2|2|2,0:0|0:0|0:0,0:0:0:0:
16,144,210238,1,2,0:0:0:0:
80,32,211066,2,0,L|152:32,1,65,2|0,0:0|0:0,0:0:0:0:
228,28,211480,1,2,0:0:0:0:
232,112,211687,1,2,0:0:0:0:
152,140,211894,22,0,B|138:192|141:243|157:290,1,130,6|8,0:0|0:0,0:0:0:0:
284,372,212721,1,2,0:0:0:0:
380,236,213135,2,0,B|387:209|385:183|376:159,1,65,8|2,0:0|0:0,0:0:0:0:
296,164,213549,2,0,B|287:212|293:260|309:302,2,130,2|8|2,0:0|0:0|0:0,0:0:0:0:
428,56,214790,1,8,0:0:0:0:
260,76,215204,38,0,B|218:102|167:95|133:65,1,130,6|8,0:0|0:0,0:0:0:0:
64,32,215825,1,0,0:0:0:0:
44,116,216032,2,0,L|60:252,1,130,2|8,0:0|0:0,0:0:0:0:
140,264,216652,1,0,0:0:0:0:
104,340,216859,2,0,B|148:344|148:344|184:368|184:368|248:372,1,130,2|8,0:0|0:0,0:0:0:0:
384,304,217687,2,0,L|456:332,2,65,2|2|8,0:0|0:0|0:0,0:0:0:0:
376,220,218307,1,2,0:0:0:0:
428,152,218514,6,0,B|380:124|324:121|276:140,1,130,6|8,0:0|0:0,0:0:0:0:
176,244,219342,2,0,B|216:267|261:272|302:264,1,130,2|8,0:0|0:0,0:0:0:0:
376,220,219963,1,2,0:0:0:0:
428,152,220169,2,0,B|434:106|457:67|489:40,2,130,2|8|2,0:0|0:0|0:0,0:0:0:0:
264,112,221411,1,8,0:0:0:0:
104,60,221825,22,0,B|107:130|92:196,1,130,6|8,0:0|0:0,0:0:0:0:
28,344,222652,1,2,0:0:0:0:
184,280,223066,1,8,0:0:0:0:
248,332,223273,1,2,0:0:0:0:
296,264,223480,2,0,B|318:215|318:162|300:116,1,130,8|8,0:0|0:0,0:0:0:0:
156,60,224307,2,0,L|88:36,2,65,8|8|8,0:0|0:0|0:0,0:0:0:0:
240,40,224928,1,8,0:0:0:0:
324,44,225135,22,0,B|324:64|304:92|304:92|328:136|316:184,1,130,6|2,0:0|0:0,0:0:0:0:
184,268,225963,2,0,B|155:259|125:263|100:276,1,65,8|2,0:0|0:0,0:0:0:0:
52,320,226376,1,2,0:0:0:0:
220,344,226790,2,0,B|265:320|279:262|252:220,1,130,2|2,0:0|0:0,0:0:0:0:
196,176,227411,1,2,0:0:0:0:
124,136,227618,2,0,L|264:116,1,130,8|2,0:0|0:0,0:0:0:0:
404,40,228445,37,6,0:0:0:0:
448,204,228859,2,0,B|460:250|433:296|389:308,1,130,2|8,0:0|0:0,0:0:0:0:
320,260,229480,1,2,0:0:0:0:
252,312,229687,2,0,L|96:324,2,130,2|2|2,0:0|0:0|0:0,0:0:0:0:
352,176,230928,2,0,L|222:185,1,130,8|2,0:0|0:0,0:0:0:0:
68,252,231756,6,0,B|51:209|51:163|64:123,1,130,6|2,0:0|0:0,0:0:0:0:
220,56,232583,2,0,L|296:52,1,65,8|2,0:0|0:0,0:0:0:0:
368,32,232997,2,0,L|444:80,1,65,2|2,0:0|0:0,0:0:0:0:
420,152,233411,2,0,B|424:192|444:220|444:220|444:256|420:300,1,130,2|2,0:0|0:0,0:0:0:0:
276,340,234238,1,8,0:0:0:0:
208,288,234445,1,0,0:0:0:0:
144,344,234652,2,0,B|112:306|119:251|155:220,1,130,2|6,0:0|0:0,0:0:0:0:
256,92,235480,22,0,B|207:73|155:77|112:96,1,130,2|8,0:0|0:0,0:0:0:0:
76,156,236100,2,0,B|42:164|8:156,2,65,2|2|2,0:0|0:0|0:0,0:0:0:0:
144,208,236721,2,0,B|213:216|280:208,1,130,6|8,0:0|0:0,0:0:0:0:
328,140,237342,2,0,B|394:132|457:140,1,130,6|8,0:0|0:0,0:0:0:0:
512,204,237963,1,8,0:0:0:0:
472,280,238169,1,8,0:0:0:0:
256,192,238376,12,0,241687,0:0:0:0:
